Details for this torrent 

The.Broken.Circle.Breakdown.2012.BRRip.XviD.AC3.HORiZON-ArtSubs
Type:
Video > Movies
Files:
5
Size:
1.9 GiB (2039140514 Bytes)
Info:
IMDB
Texted language(s):
English, French, Spanish, Portugese
Tag(s):
Belgium Romance Drama Love Country Music Musical Oscar Academy Awards
Uploaded:
2014-07-02 01:03:24 GMT
By:
lletaif Trusted
Seeders:
1
Leechers:
0
Comments
0  

Info Hash:
BD3C1EE5A39339059A587A3A466609561C52C0BE




(Problems with magnets links are fixed by upgrading your torrent client!)
Title:
The Broken Circle Breakdown


Country:
Belgium, 2012


Language:
Flemish


Subtitle:
English, Portuguese, French, Spanish


IMDB: 
http://www.imdb.com/title/tt2024519/?ref_=fn_tt_tt_1


Trivia:
Academy Awards Nominies in Best Foreign Language Film - Oscar 2014


Synopsis:
Elise and Didier fall in love at first sight, in spite of their differences. He talks, she listens. He's a romantic atheist, she's a religious realist. When their daughter becomes seriously ill, their love is put on trial.


Media Info:

General
Complete name                            : The.Broken.Circle.Breakdown.2012.BRRip.XviD.AC3.HORiZON-ArtSubs.avi
Format                                   : AVI
Format/Info                              : Audio Video Interleave
Format profile                           : OpenDML
File size                                : 1.90 GiB
Duration                                 : 1h 51mn
Overall bit rate                         : 2 435 Kbps
Writing application                      : Lavf52.94.0

Video
ID                                       : 0
Format                                   : MPEG-4 Visual
Format profile                           : Simple@L3
Format settings, BVOP                    : No
Format settings, QPel                    : No
Format settings, GMC                     : No warppoints
Format settings, Matrix                  : Default (H.263)
Codec ID                                 : XVID
Codec ID/Hint                            : XviD
Duration                                 : 1h 51mn
Bit rate                                 : 2 200 Kbps
Width                                    : 1 280 pixels
Height                                   : 544 pixels
Display aspect ratio                     : 2.35:1
Frame rate                               : 24.000 fps
Color space                              : YUV
Chroma subsampling                       : 4:2:0
Bit depth                                : 8 bits
Scan type                                : Progressive
Compression mode                         : Lossy
Bits/(Pixel*Frame)                       : 0.132
Stream size                              : 1.72 GiB (90%)
Writing library                          : XviD 1.2.1 (UTC 2008-12-04)

Audio
ID                                       : 1
Format                                   : AC-3
Format/Info                              : Audio Coding 3
Mode extension                           : CM (complete main)
Format settings, Endianness              : Big
Codec ID                                 : 2000
Duration                                 : 1h 51mn
Bit rate mode                            : Constant
Bit rate                                 : 224 Kbps
Channel(s)                               : 2 channels
Channel positions                        : Front: LR
Sampling rate                            : 48.0 KHz
Bit depth                                : 16 bits
Compression mode                         : Lossy
Stream size                              : 179 MiB (9%)
Alignment                                : Aligned on interleaves
Interleave, duration                     : 32 ms (0.77 video frame)
Interleave, preload duration             : 32 ms


Sitemap