Details for this torrent 

My Name is Emily [2015]
Type:
Video > Movies
Files:
1
Size:
1.64 GiB (1761954548 Bytes)
Info:
IMDB
Spoken language(s):
English
Texted language(s):
Russian
Tag(s):
my name is emily name emily drama evanna lynch Irish
Uploaded:
2017-04-11 01:25:23 GMT
By:
ShineNJ
Seeders:
5
Leechers:
0
Comments
0  

Info Hash:
4AE38595942B89B7998BDDE4FDA31299EC1F0C2B




(Problems with magnets links are fixed by upgrading your torrent client!)
Only copy of the movie I could find that didn't have English/Polish being spoken at the same time. English audio with hardcoded Russian subs. Enjoy!

Video
Format                      : MPEG-4 Visual
Codec ID                    : XVID
Duration                    : 1 h 30 min
Bit rate                    : 2 400 kb/s
Width                       : 1 280 pixels
Height                      : 688 pixels
Display aspect ratio        : 1.85:1
Frame rate                  : 25.000 FPS
Color space                 : YUV
Chroma subsampling          : 4:2:0
Bit depth                   : 8 bits
Scan type                   : Progressive
Compression mode            : Lossy
Bits/(Pixel*Frame)          : 0.109
Stream size                 : 1.52 GiB (92%)
Writing library             : XviD 1.2.1 (UTC 2008-12-04)

Audio
ID                          : 1
Format                      : MPEG Audio
Format version              : Version 1
Format profile              : Layer 2
Codec ID                    : 50
Duration                    : 1 h 30 min
Bit rate mode               : Constant
Bit rate                    : 192 kb/s
Channel(s)                  : 2 channels
Sampling rate               : 48.0 kHz
Compression mode            : Lossy
Stream size                 : 124 MiB (7%)
Alignment                   : Aligned on interleaves
Interleave, duration        : 367  ms (9.17 video frames)
Interleave, preload duratio : 216  ms

Sitemap